Торрент большая рыба и бегония


Большая рыба и Бегония / Big Fish & Begonia / Da Hai (2016) BDRip 1080p | AniDub скачать торрент

Информация о фильме

Название: Большая рыба и Бегония Оригинальное название: Big Fish & Begonia / Da Hai Год выхода: 2016 Жанр: приключения, фэнтези, драма Режиссер: Сюань Лян, Чунь Чжан В ролях: Шицзя Цзинь, Гуаньлинь Цзи, Гуантао Цзян, Шулань Пань, Шанцин Су, Дэшунь Ван, Вэйчжоу Сюй О фильме: Действие происходит в мире, существующем в нашей реальности, но неизвестном никому из людей. Тут живут существа, контролирующие приливы, смену сезонов и время в целом. Чунь, одна из жительниц этой вселенной, в свое шестнадцатилетие превращается в дельфина, чтобы посмотреть на жизнь людей. Но в нашем мире девушка практически сразу попадает в шторм, и от гибели её — ценой собственной жизни, конечно, — спасает человеческий мальчик. Чунь таким событием впечатляется и решает вернуть мальчику жизнь. Но для этого ей придется защитить его душу, превратившуюся в маленькую рыбку.

World Art | MAL Выпущено: Китай / B&T Продолжительность: 01:40:35 Перевод: Любительский (многоголосый, закадровый) Язык: Русский

Файл

Качество: BDRip 1080p Формат: MKV Видео кодек: MPEG4-AVC Аудио кодек: AAC Видео: 1920x1080, 25.000 fps, 6000 kbps Аудио RUS: 48.0 kHz, AAC, 2 ch, 192 kbps - AniDub Субтитры: Китайские (Хардсаб)

Релиз от:

Озвучивание: Студийная Банда AD, Esther, Влад Дуров, BalFor, Давид Петросян, Торгиль, JAM, Demetra, Cuba77 Перевод: Cuba77 Тайминг и работа со звуком: Павел П.

Скриншоты

MediaInfo

General Format : Matroska Format version : Version 4 / Version 2 File size : 4.33 GiB Duration : 1 h 40 min Overall bit rate : 6 158 kb/s

Encoded date : UTC 2016-10-15 03:40:52

Writing application : mkvmerge v8.3.0 ('Over the Horizon') 64bit Writing library : libebml v1.3.1 + libmatroska v1.4.2 Video ID : 1 Format : AVC Format/Info : Advanced Video Codec Format profile : [email protected] Format settings, CABAC : Yes Format settings, ReFrames : 4 frames Codec ID : V_MPEG4/ISO/AVC Duration : 1 h 40 min Bit rate : 6 000 kb/s Width : 1 920 pixels Height : 1 080 pixels Display aspect ratio : 16:9 Frame rate mode : Constant Frame rate : 25.000 FPS Color space : YUV Chroma subsampling : 4:2:0 Bit depth : 8 bits Scan type : Progressive Bits/(Pixel*Frame) : 0.116 Stream size : 4.19 GiB (97%) Writing library : x264()-core 129 - H.264/MPEG-4 Encoding settings : cabac=1 / ref=4 / deblock=1:0:0 / analyse=0x3:0x133 / me=umh / subme=9 / psy=1 / psy_rd=0.00:0.00 / mixed_ref=1 / me_range=24 / chroma_me=1 / trellis=2 / 8x8dct=1 / cqm=0 / deadzone=21,11 / fast_pskip=0 / chroma_qp_offset=0 / threads=40 / lookahead_threads=6 / sliced_threads=0 / nr=0 / decimate=1 / interlaced=0 / bluray_compat=0 / constrained_intra=0 / bframes=4 / b_pyramid=2 / b_adapt=0 / b_bias=0 / direct=3 / weightb=1 / open_gop=0 / weightp=2 / keyint=250 / keyint_min=25 / scenecut=40 / intra_refresh=0 / rc_lookahead=60 / rc=abr / mbtree=1 / bitrate=6000 / ratetol=1.0 / qcomp=0.60 / qpmin=0 / qpmax=69 / qpstep=4 / vbv_maxrate=12000 / vbv_bufsize=6000 / nal_hrd=none / ip_ratio=1.40 / aq=1:1.00 Default : Yes Forced : No Audio ID : 2 Format : AAC Format/Info : Advanced Audio Codec Format profile : LC Codec ID : A_AAC Duration : 1 h 40 min Bit rate : 192 kb/s Channel(s) : 2 channels Channel positions : Front: L R Sampling rate : 48.0 kHz Frame rate : 46.875 FPS (1024 spf) Compression mode : Lossy Stream size : 136 MiB (3%) Title : AniDub Language : Russian Default : Yes Forced : No
Мультфильмы
74
2
15-Окт-2016 07:20 (1 год назад)
4.33 GB (4645670146 Bytes)
закладки
НазваниеРазмер
Происходит загрузка списка файлов...

Файлы для обмена предоставлены пользователями сайта. Администрация не несёт ответственности за их содержание. На сервере хранятся только торрент-файлы. Это значит, что мы не храним никаких нелегальных материалов, а так же материалов охраняемых авторским правом.

krutor.org

Большая рыба и Бегония

WEB-DLRip 7.6 Blu-ray 5.9 Blu-ray 7 WEB-DLRip 5.4 HDRip 7.3 WEB-DLRip 7.1

Качество Видео Аудио Языки Субтитры Размер Сиды, личи Обновлен Файлы
BDRip 1920x1080 Любительский одноголосый/многоголосый ru zh 4.33 ГБ 75 78 22.10.2017 Скачать
1920x1080 Любительский одноголосый/многоголосый ru zh 4.33 ГБ 22 22 04.10.2017 Скачать
HDRip 720x304 Любительский одноголосый/многоголосый ru zh 1.45 ГБ 133 138 22.10.2017 Скачать
1280x720 Любительский одноголосый/многоголосый ru zh 1.62 ГБ 10 10 11.09.2017 Скачать
Не указано 1280x536 Любительский одноголосый/многоголосый ru zh en, ru 2.24 ГБ 29 39 21.10.2017 Скачать
Blu-ray 8.4

www.torrentino.me

Большая рыба и Бегония / Big Fish & Begonia / Da Hai (2016) BDRip 1080p | AniDub скачать торрент

Информация о фильме

Название: Большая рыба и Бегония Оригинальное название: Big Fish & Begonia / Da Hai Год выхода: 2016 Жанр: приключения, фэнтези, драма Режиссер: Сюань Лян, Чунь Чжан В ролях: Шицзя Цзинь, Гуаньлинь Цзи, Гуантао Цзян, Шулань Пань, Шанцин Су, Дэшунь Ван, Вэйчжоу Сюй О фильме: Действие происходит в мире, существующем в нашей реальности, но неизвестном никому из людей. Тут живут существа, контролирующие приливы, смену сезонов и время в целом. Чунь, одна из жительниц этой вселенной, в свое шестнадцатилетие превращается в дельфина, чтобы посмотреть на жизнь людей. Но в нашем мире девушка практически сразу попадает в шторм, и от гибели её — ценой собственной жизни, конечно, — спасает человеческий мальчик. Чунь таким событием впечатляется и решает вернуть мальчику жизнь. Но для этого ей придется защитить его душу, превратившуюся в маленькую рыбку.

World Art | MAL Выпущено: Китай / B&T Продолжительность: 01:40:35 Перевод: Любительский (многоголосый, закадровый) Язык: Русский

Файл

Качество: BDRip 1080p Формат: MKV Видео кодек: MPEG4-AVC Аудио кодек: AAC Видео: 1920x1080, 25.000 fps, 6000 kbps Аудио RUS: 48.0 kHz, AAC, 2 ch, 192 kbps - AniDub Субтитры: Китайские (Хардсаб)

Релиз от:

Озвучивание: Студийная Банда AD, Esther, Влад Дуров, BalFor, Давид Петросян, Торгиль, JAM, Demetra, Cuba77 Перевод: Cuba77 Тайминг и работа со звуком: Павел П.

Скриншоты

MediaInfo

General Format : Matroska Format version : Version 4 / Version 2 File size : 4.33 GiB Duration : 1 h 40 min Overall bit rate : 6 158 kb/s

Encoded date : UTC 2016-10-15 03:40:52

Writing application : mkvmerge v8.3.0 ('Over the Horizon') 64bit Writing library : libebml v1.3.1 + libmatroska v1.4.2 Video ID : 1 Format : AVC Format/Info : Advanced Video Codec Format profile : [email protected] Format settings, CABAC : Yes Format settings, ReFrames : 4 frames Codec ID : V_MPEG4/ISO/AVC Duration : 1 h 40 min Bit rate : 6 000 kb/s Width : 1 920 pixels Height : 1 080 pixels Display aspect ratio : 16:9 Frame rate mode : Constant Frame rate : 25.000 FPS Color space : YUV Chroma subsampling : 4:2:0 Bit depth : 8 bits Scan type : Progressive Bits/(Pixel*Frame) : 0.116 Stream size : 4.19 GiB (97%) Writing library : x264()-core 129 - H.264/MPEG-4 Encoding settings : cabac=1 / ref=4 / deblock=1:0:0 / analyse=0x3:0x133 / me=umh / subme=9 / psy=1 / psy_rd=0.00:0.00 / mixed_ref=1 / me_range=24 / chroma_me=1 / trellis=2 / 8x8dct=1 / cqm=0 / deadzone=21,11 / fast_pskip=0 / chroma_qp_offset=0 / threads=40 / lookahead_threads=6 / sliced_threads=0 / nr=0 / decimate=1 / interlaced=0 / bluray_compat=0 / constrained_intra=0 / bframes=4 / b_pyramid=2 / b_adapt=0 / b_bias=0 / direct=3 / weightb=1 / open_gop=0 / weightp=2 / keyint=250 / keyint_min=25 / scenecut=40 / intra_refresh=0 / rc_lookahead=60 / rc=abr / mbtree=1 / bitrate=6000 / ratetol=1.0 / qcomp=0.60 / qpmin=0 / qpmax=69 / qpstep=4 / vbv_maxrate=12000 / vbv_bufsize=6000 / nal_hrd=none / ip_ratio=1.40 / aq=1:1.00 Default : Yes Forced : No Audio ID : 2 Format : AAC Format/Info : Advanced Audio Codec Format profile : LC Codec ID : A_AAC Duration : 1 h 40 min Bit rate : 192 kb/s Channel(s) : 2 channels Channel positions : Front: L R Sampling rate : 48.0 kHz Frame rate : 46.875 FPS (1024 spf) Compression mode : Lossy Stream size : 136 MiB (3%) Title : AniDub Language : Russian Default : Yes Forced : No
Мультфильмы
74
2
15-Окт-2016 07:20 (1 год назад)
4.33 GB (4645670146 Bytes)
закладки
НазваниеРазмер
Происходит загрузка списка файлов...

Файлы для обмена предоставлены пользователями сайта. Администрация не несёт ответственности за их содержание. На сервере хранятся только торрент-файлы. Это значит, что мы не храним никаких нелегальных материалов, а так же материалов охраняемых авторским правом.

mrutor.org

Большая рыба и Бегония (2016)

Уважаемый пользователь! Не забывайте оставаться на раздаче после того, как скачали торрент! Помогите скачать и другим - поддержите свободный обмен!

Смотреть трейлер Информация о фильме Название: Большая рыба и Бегония Оригинальное название: Big Fish & Begonia / Da Hai Год выхода: 2016 Жанр: мультфильм, приключения, фэнтези, драма Режиссер: Сюань Лян, Чунь Чжан В ролях: Шицзя Цзинь, Гуаньлинь Цзи, Гуантао Цзян, Шулань Пань, Шанцин Су, Дэшунь Ван, Вэйчжоу Сюй О фильме: События развернутся в мире, который существует в нашей реальности, но неизвестен никому из людей. В этом мире живут существа, которые контролируют приливы и отливы, смену сезонов и само время. Чуть — одна из жительниц этой вселенной, которая в свое шестнадцатилетние превращается в дельфина, чтобы посмотреть на людей. Но в нашем мире девушка сразу оказывается в шторме. И от гибели её спасает человеческий мальчик. Чунь решает вернуть мальчику жизнь во что бы то ни стало. Но для этого она должна защитить его душу... [kinopoisk]630465[/kinopoisk]

Страна: Китай / B&T

Продолжительность: 01:40:35 Перевод: Любительский (многоголосый, закадровый) [AniDub (Студийная Банда AD, Esther, Влад Дуров, BalFor, Давид Петросян, Торгиль, JAM, Demetra, Cuba77)] Релиз без рекламы!

Файл

Качество: HDRip Формат: AVI Видео: XviD, 1863 Kb/s, 720x304 Звук: AC3, 192 Kb/s (2 ch) Субтитры: Chinese (вшитые неотключаемые)

Скриншоты:

[screens] http://i82.fastpic.ru/big/2016/1016/fb/0a58128e8a35800732446879cfe670fb.jpg http://i82.fastpic.ru/big/2016/1016/fe/a3de2859bfd2d5d88ceab4bbea0d21fe.jpg http://i85.fastpic.ru/big/2016/1016/4d/63c54ab197585036f4338fba3d083d4d.jpg http://i82.fastpic.ru/big/2016/1016/cc/0d8b522eb310e7de2f4cdf862efd10cc.jpg

[/screens]

Категории: фантастика, мультфильмы, приключения, драмы Размер: 1.45 Гб

n-torrents.ru


Смотрите также